#TITLE:Operator;
#SUBTITLE:Dead Master;
#ARTIST:Papaya;
#TITLETRANSLIT:;
#SUBTITLETRANSLIT:;
#ARTISTTRANSLIT:;
#CREDIT:;
#BANNER:bn.jpg;
#BACKGROUND:bg.jpg;
#LYRICSPATH:;
#CDTITLE:cd.png;
#MUSIC:Operator.mp3;
#OFFSET:-0.186;
#SAMPLESTART:44.594;
#SAMPLELENGTH:12.000;
#SELECTABLE:YES;
#BPMS:0.000=135.110;
#STOPS:;
#BGCHANGES:;
// cache tags:
#FIRSTBEAT:0.750;
#LASTBEAT:198.750;
#SONGFILENAME:Songs/s/Operator (Papaya)/Operator.sm;
#HASMUSIC:1;
#HASBANNER:1;
#MUSICLENGTH:89.995;
// end cache tags

//---------------dance-single - ----------------
#NOTES:
     dance-single:
     :
     Hard:
     1:
     0.738,0.635,0.200,0.300,1.000,420.000,18.000,27.000,0.000,0.000:
0000
0000
0000
1000
0000
0000
0001
0000
0100
0000
0000
0010
0000
0010
0000
0000
,
0001
0000
0001
0100
0000
0010
0000
0010
0000
1000
0001
0000
0001
0100
0000
0010
,
0010
0000
0000
0000
1001
0000
0001
0100
0000
0010
0000
0010
0000
1000
0001
0001
,
0000
0100
0010
0000
0010
1000
0001
0000
0001
0000
0100
0010
0000
0010
0000
1000
,
0001
0000
0001
0000
0100
0000
0010
0010
1000
0000
0100
0000
0001
0000
0001
0000
,
0000
0020
0000
0000
0000
0000
0000
0030
0000
0100
0100
0010
0000
0010
1000
0002
,
0000
0000
0013
0000
0100
0010
0000
0110
0000
0001
0000
1000
0000
0010
0010
0000
,
0101
0000
0010
1000
0000
0100
0000
0020
0000
0000
0000
0000
0000
0030
0000
0100
,
0000
0110
0000
0001
0000
0010
0100
0010
0000
0010
1000
0000
0010
0010
0100
0001
,
0000
0001
0100
0000
0010
0000
0010
1000
0000
0010
0010
0000
0100
0001
0100
0001
,
0000
0010
0000
0000
1000
0000
0010
0010
0000
0100
0001
0000
0100
0000
0010
0010
,
1000
0000
0010
0000
0010
0100
0000
2000
0000
0000
0000
0000
0000
3010
0000
0010
,
0100
0001
0000
0101
0100
0010
0000
0010
1000
0000
0000
0010
0010
0000
0100
0001
,
0001
0000
0100
0000
0020
0000
0000
0000
0000
0130
0000
1000
0100
0010
0000
0000
,
0001
0000
0010
0000
0100
0010
0110
0000
0100
1000
0000
0100
0000
0010
0000
0010
,
0100
0000
1001
0010
0100
0010
0020
0000
0000
0000
0000
0000
0000
0030
0000
0001
,
0000
0010
0100
0010
0000
0001
0000
0000
1000
0010
0010
0000
0000
0001
0000
0010
,
0100
0010
0000
0001
0000
0010
0000
0010
0000
0100
0000
0100
0000
0010
0010
0000
,
1000
0010
0000
0010
0000
0101
0000
0001
0100
0001
0000
0001
0000
0100
0010
0010
,
0100
0000
0010
0000
0010
1000
0000
0010
0010
0000
0100
0001
0001
0000
0000
0001
,
0001
0000
0100
0000
0010
0010
0000
0100
0010
0010
0000
0100
0000
0010
0010
1000
,
0010
0000
0010
0000
0110
0000
0010
0000
1010
0000
0010
0000
0100
0001
0001
0000
,
0000
0001
0001
0000
0100
0010
0000
0010
0100
0010
0000
1000
0010
0000
0010
0100
,
0010
0000
0010
0000
0100
0010
0000
0002
0000
0000
0000
0000
0003
0010
0000
0010
,
0100
0000
1000
0000
0010
0010
0000
0010
0100
0000
0001
0000
1000
0000
0010
0010
,
0200
0000
0000
0000
0000
0000
0310
0010
0000
2000
0000
0000
0000
3010
0000
0010
,
0000
0010
0100
0000
0010
0100
0010
0000
0000
0000
1000
0010
0000
0010
0200
0000
,
0000
0000
0000
0000
0000
0000
0010
0000
0300
0000
0010
0000
0010
1000
0010
0000
,
0010
1000
0000
0001
0000
0001
0000
0000
0100
0000
0010
0000
1000
0010
0000
0200
,
0000
0000
0000
0000
0000
0310
0000
0010
2000
0000
0000
0000
0000
0000
3010
0000
,
0010
0000
0100
0001
0010
0000
1000
0000
0110
0000
0010
0100
0000
0001
0000
0002
,
0000
0000
0000
0000
0000
0010
0000
0000
0000
0020
0000
0000
0030
0000
0000
0003
,
1000
0010
0000
0010
0100
0001
0000
0001
1000
0010
0000
0010
0000
0101
0000
0001
,
1000
0000
0010
0010
0000
0000
0000
0101
0000
0001
0100
0000
0010
1000
0010
0000
,
0010
0200
0000
0000
0000
0310
0010
0000
0100
0001
0001
0000
1000
0010
0000
0010
,
0100
0000
0010
0000
0010
1000
0000
0200
0000
0000
0000
0000
0000
0000
0310
0010
,
0000
1000
0001
0000
0001
0100
0000
0010
0010
0000
2000
0000
0000
3010
0000
0010
,
0100
0000
0000
0020
0000
0000
0000
0000
0000
0030
0100
0001
0000
0101
0000
0010
,
0000
1000
0000
0010
0000
0010
0000
0100
0010
0000
0100
0000
0010
0100
0000
0100
,
0010
0000
1000
0000
0010
0000
0100
0000
0000
0010
0000
0000
1000
0000
0010
0000
,
0100
0001
0000
0010
0000
1000
0100
0000
0010
0001
0010
0000
0000
1000
0000
0100
,
0010
0000
0100
0001
0010
0000
0100
0010
0000
1010
0000
0010
0100
0001
0000
0001
,
0000
0020
0000
0000
0130
1000
0000
0110
0000
0020
0000
0000
0130
0010
0000
0010
,
0100
0001
0000
0001
0100
0000
0010
0100
0010
0000
0010
1000
0010
0000
0010
0100
,
0000
0002
0000
0010
0000
1003
0000
0100
0010
0020
0000
0000
0030
0100
0000
0020
,
0000
0000
0000
0000
0000
0000
0000
0000
0000
0000
0030
0001
0010
1000
0000
0110
,
0000
0010
0001
0010
0000
0100
0010
0010
0000
0100
1000
0000
0200
0000
0000
0310
,
0010
0000
0100
0010
0000
0110
0000
0010
0000
1000
0010
0000
0010
0100
0000
0001
,
0002
0000
0000
0000
0003
0010
0000
0010
0000
0010
0000
0020
0000
0000
0030
0000
,
0000
0001
0001
0000
0002
0000
0000
0000
0003
0010
0000
0010
0000
0000
0000
0000
;
